Filecrypt zeigt vereinzelt Files als "n/a". Die Downloads sind trotzdem komplett.

DNS SERVER AENDERNum der staatlichen Zensur zu umgehen. Sollten wir von eurem Provider geseprrt werden, nutzt den TOR BROWSER oder ändert euren DNS SERVER.

Filmwünsche können bei uns im Forum abgegeben werden

Wir Speichern Nicht




 
 
 
Top Releases
Hotel.Artemis.2018.German.AC...
Ant-Man.2015.German.AC3.DL.1...
In.den.Gaengen.2018.German.A...
Oceans.8.2018.MULTi.COMPLETE...
Outlaw.King.2018.German.DL.1...
Outlaw.King.2018.German.DL.7...
Ploetzlich.Papa.2016.German....
Gun.City.2018.German.AC3.108...
Ant.Man.and.the.Wasp.2018.Ge...
Ant.Man.and.the.Wasp.2018.Ge...

Cinedubs
Predator.Upgrade.German.DL.A...
Predator.Upgrade.German.DL.A...
10×10.2018.German.AC3D.DL.1...
10×10.2018.German.AC3D.DL.7...
Sicario.2.German.DL.AC3.Dubb...
Sicario.2.German.DL.AC3.Dubb...
Hotel.Artemis.German.DL.AC3....
Hotel.Artemis.German.DL.AC3....
Mission.Impossible.Fallout.2...
Mission.Impossible.Fallout.2...

Neuerscheinungen 2017-18
Cut.Shoot.Kill.2017.German.D...
8.Millionen.Wege.zu.sterben....
Mercy.Christmas.Bitte.zu.Tis...
Terminal.Rache.war.nie.schoe...
In.Darkness.2018.German.AC3D...
Die.Fuersten.der.Dunkelheit....
Rambo.II.Der.Auftrag.Rambo.F...
Rambo.First.Blood.1982.REMAS...
The.Keeping.Hours.2017.Germa...
Appgefahren.Alles.ist.moegli...

XXX
BoundGangBangs.18.10.31.Chlo...
BrazzersExxtra.18.10.30.Diam...
BrazzersExxtra.18.10.31.Bonn...
ATKGirlfriends.18.10.29.Chlo...
BigTitVenera.18.07.26.Venera...
BabyGotBoobs.18.10.29.Tia.Cy...
BangBus.18.10.31.Penelope.Wh...
BreakingAsses.18.10.28.Bibi....
BritneyAmber.18.10.30.Naught...
AllOver30.18.10.30.Mimi.Smit...
BigNaturals.18.10.30.Michele...
BlacksOnBlondes.18.10.30.Can...
Beauty-Angels.18.10.29.Eliza...
BigTitVenera.18.08.23.Lollip...
BarbaraBieberOfficial.18.10....
BarbaraBieberOfficial.18.09....
BurningAngel.18.10.30.Ariana...
BoldlyGirls.18.10.29.Susy.Ga...
BarbaraBieberOfficial.18.10....
BarbaraBieberOfficial.18.08....

3D
Die.Unglaublichen.2.3D.2018....
Die.Unglaublichen.2.2018.3D....
Die.Unglaublichen.2.2018.3D....
Sharknado.6.The.Last.One.3D....
Deep.Kleine.Helden.der.Tiefs...
Deep.3D.2017.MULTI.COMPLETE....
Detective.Dee.und.die.Legend...
Detective.Dee.und.die.Legend...
Skyscraper.3D.German.DL.AC3....
Ant-Man.and.the.Wasp.2018.3D...
Jurassic.World.Das.gefallene...
Jurassic.World.Das.gefallene...
Best.of.3D.vol.10.-.12.GERMA...
Die.Biene.Maja.2.Die.Honigsp...
Sharknado.6.The.Last.One.3D....

Old_Stuff
Detective.Dee.und.das.Geheim...
Detective.Dee.Und.Der.Fluch....
Ghost.Rider.Spirit.of.Vengea...
Species.IV.Das.Erwachen.2007...
Species.IV.Das.Erwachen.2007...
Hotel.Transsilvanien.2012.Ge...
The.Dead.2010.German.DL.1080...
The.Dead.2.India.2013.German...
Britney.Spears.Live.The.Femm...
Buffy.The.Vampire.Slayer.199...
IMAX.Ride.Around.The.World.2...
Schimanski.-.Duisburg.Ruhror...
Akte.X.S02.German.DTS.DL.108...
How.I.Met.Your.Mother.S02.Ge...
Akte.X.S01.German.DTS.DL.108...

Filme
Weiblich.ledig.jung.sucht.19...
Rambo.2.Der.Auftrag.1985.Rem...
The.Unsaid.Lautlose.Schreie....
The.Violators.1993.German.DL...
The.Viking.-.Der.letzte.Drac...
The.Viral.Factor.2012.German...
Matrix.Reloaded.USA.2003.US....
The.Veteran.2011.German.DL.1...
Eyyvah.eyvah.2010.German.108...
Natty.Ganns.Reise.ins.Abente...
Ein.Rabbi.im.Wilden.Westen.a...
League.of.Gods.2016.German.A...
Enemy.Mine.1985.German.AC3.D...
House.of.Good.and.Evil.2013....
La.Habanera.1937.German.1080...
Revenge.Eine.gefaehrliche.Af...
Nicht.ohne.Eltern.2017.Germa...
Rambo.3.1988.Remastered.Germ...
Rambo.3.1988.Remastered.Germ...
Rambo.First.Blood.1982.Remas...
Flucht.Aus.Absolom.GERMAN.19...
Flucht.Aus.Absolom.GERMAN.19...
StartUp.S03.COMPLETE.German....
The.Purge.S01.COMPLETE.Germa...

 
 
Enemy.Mine.1985.German.AC3.DL.1080p.BluRay.x265-FuN

Jahr: 1985
Genre: Action, Drama
Sprache: Deutsch AC3 | Englisch AC3
Laufzeit: 1h 48mn
Bitrate: 2 662 Kbps
Format: MKV
Größe: 2.01 GiB
Release:

Beschreibung:

ie Menschheit befindet sich im Krieg: Gegen die echsenartigen Dracs kämpfen sie um die Herrschaft über ein Planetensystem. Nach einem Kampfschaden landet der irdischer Raumjägerpilot Willis Davidge auf einem fremden Planeten, allerdings stellt er bald fest, dass er nicht der einzige Überlebende der Schlacht ist – Jeriba Shigan ein Soldat der feindlichen Dracs, hat auch überlebt. Nach anfänglichem erbitterten Kampf entwickelt sich schließlich eine Freundschaft zwischen den Beiden, als Jeriba Willis‘ Leben rettet. Bald erwartet der Drac ein Kind und spürt, dass es bei der Geburt Probleme geben könnte ... Willis verpflichtet sich liebevoll für das Kind zu sorgen und es zu einem Stammesmitglied der Dracs zu erziehen. Wohlwissend, dass Menschen Dracs gewöhnlich fangen und als Sklaven halten ...




Format                                   : Matroska
Format version                           : Version 4 / Version 2
File size                                : 2.01 GiB
Duration                                 : 1h 48mn
Overall bit rate                         : 2 662 Kbps
Encoded date                             : UTC 2018-11-07 03:45:57
Writing application                      : HandBrake 20181023173755-177c1e3 2018102701
Writing library                          : Lavf58.12.100

Video
ID                                       : 1
Format                                   : HEVC
Format/Info                              : High Efficiency Video Coding
Format profile                           : [email protected]
Codec ID                                 : V_MPEGH/ISO/HEVC
Duration                                 : 1h 48mn
Bit rate                                 : 1 841 Kbps
Width                                    : 1 920 pixels
Height                                   : 808 pixels
Display aspect ratio                     : 2.40:1
Frame rate mode                          : Constant
Frame rate                               : 23.976 fps
Color space                              : YUV
Chroma subsampling                       : 4:2:0
Bit depth                                : 8 bits
Bits/(Pixel*Frame)                       : 0.049
Stream size                              : 1.39 GiB (69%)
Writing library                          : x265 2.8:[Linux][GCC 6.4.0][64 bit] 8bit+10bit+12bit
Encoding settings                        : cpuid=1111039 / frame-threads=3 / wpp / no-pmode / no-pme / no-psnr / no-ssim / log-level=2 / input-csp=1 / input-res=1920x808 / interlace=0 / total-frames=0 / level-idc=0 / high-tier=1 / uhd-bd=0 / ref=3 / no-allow-non-conformance / no-repeat-headers / annexb / no-aud / no-hrd / info / hash=0 / no-temporal-layers / open-gop / min-keyint=24 / keyint=240 / gop-lookahead=0 / bframes=4 / b-adapt=2 / b-pyramid / bframe-bias=0 / rc-lookahead=20 / lookahead-slices=5 / scenecut=40 / radl=0 / no-intra-refresh / ctu=64 / min-cu-size=8 / no-rect / no-amp / max-tu-size=32 / tu-inter-depth=1 / tu-intra-depth=1 / limit-tu=0 / rdoq-level=0 / dynamic-rd=0.00 / no-ssim-rd / signhide / no-tskip / nr-intra=0 / nr-inter=0 / no-constrained-intra / no-strong-intra-smoothing / max-merge=2 / limit-refs=3 / no-limit-modes / me=1 / subme=2 / merange=57 / temporal-mvp / weightp / no-weightb / no-analyze-src-pics / deblock=0:0 / no-sao / no-sao-non-deblock / rd=3 / no-early-skip / rskip / no-fast-intra / no-tskip-fast / no-cu-lossless / no-b-intra / no-splitrd-skip / rdpenalty=0 / psy-rd=2.00 / psy-rdoq=0.00 / no-rd-refine / no-lossless / cbqpoffs=0 / crqpoffs=0 / rc=crf / crf=23.0 / qcomp=0.60 / qpstep=4 / stats-write=0 / stats-read=0 / ipratio=1.40 / pbratio=1.30 / aq-mode=1 / aq-strength=1.00 / cutree / zone-count=0 / no-strict-cbr / qg-size=32 / no-rc-grain / qpmax=69 / qpmin=0 / no-const-vbv / sar=1 / overscan=0 / videoformat=5 / range=0 / colorprim=1 / transfer=1 / colormatrix=1 / chromaloc=0 / display-window=0 / max-cll=0,0 / min-luma=0 / max-luma=255 / log2-max-poc-lsb=8 / vui-timing-info / vui-hrd-info / slices=1 / no-opt-qp-pps / no-opt-ref-list-length-pps / no-multi-pass-opt-rps / scenecut-bias=0.05 / no-opt-cu-delta-qp / no-aq-motion / no-hdr / no-hdr-opt / no-dhdr10-opt / no-idr-recovery-sei / analysis-reuse-level=5 / scale-factor=0 / refine-intra=0 / refine-inter=0 / refine-mv=0 / no-limit-sao / ctu-info=0 / no-lowpass-dct / refine-mv-type=0 / copy-pic=1 / max-ausize-factor=1.0 / no-dynamic-refine / no-single-sei
Default                                  : Yes
Forced                                   : No
DURATION                                 : 01:48:09.196000000

Audio #1
ID                                       : 2
Format                                   : AC-3
Format/Info                              : Audio Coding 3
Mode extension                           : CM (complete main)
Format settings, Endianness              : Big
Codec ID                                 : A_AC3
Duration                                 : 1h 48mn
Bit rate mode                            : Constant
Bit rate                                 : 384 Kbps
Channel(s)                               : 6 channels
Channel positions                        : Front: L C R, Side: L R, LFE
Sampling rate                            : 48.0 KHz
Bit depth                                : 16 bits
Compression mode                         : Lossy
Delay relative to video                  : -5ms
Stream size                              : 297 MiB (14%)
Title                                    : Surround
Language                                 : German
Default                                  : Yes
Forced                                   : No
DURATION                                 : 01:48:09.152000000

Audio #2
ID                                       : 3
Format                                   : AC-3
Format/Info                              : Audio Coding 3
Mode extension                           : CM (complete main)
Format settings, Endianness              : Big
Codec ID                                 : A_AC3
Duration                                 : 1h 48mn
Bit rate mode                            : Constant
Bit rate                                 : 384 Kbps
Channel(s)                               : 6 channels
Channel positions                        : Front: L C R, Side: L R, LFE
Sampling rate                            : 48.0 KHz
Bit depth                                : 16 bits
Compression mode                         : Lossy
Delay relative to video                  : -5ms
Stream size                              : 297 MiB (14%)
Title                                    : Surround
Language                                 : English
Default                                  : No
Forced                                   : No
DURATION                                 : 01:48:09.184000000

Text
ID                                       : 4
Format                                   : PGS
Codec ID                                 : S_HDMV/PGS
Codec ID/Info                            : The same subtitle format used on BDs/HD-DVDs
Language                                 : English
Default                                  : No
Forced                                   : No
DURATION                                 : 01:43:36.006000000



Download:
Share Online Share OnlineShare OnlineShare Online
 

Kommentare